1

Тэма: Akute / Nie isnuje / CD BMA 145 / 2012 / FLAC / lossless

Akute – Nie isnuje

http://i.imgur.com/851BcaX.jpg

Лэйбл: БМА-group – CD BMA 145
Краіна: Беларусь
Год: 2012
Фармат: CD, FLAC
Бітрэйт: lossless
Стыль: Indie Rock
Памер: 262 Mb (274 956 887 b)
Рэліз на MusicBrainz, Discogs

Трэкліст
1. Kroŭ by vada (3:47)
2. Jany pad śnieham (3:44)
3. Śpi (4:54)
4. Moj rodny gut (4:13)
5. Cicha, jak maja śmierć (4:27)
6. Lipkaje (3:07)
7. Ihołki (2:32)
8. Špital (4:16)
9. Nie isnuje (3:49)
10. Zorka (3:21)

Агульная працягласць: 38:10

LOG:

Здымкі экрана Паказаць

Exact Audio Copy V1.0 beta 4 from 7. December 2014

EAC extraction logfile from 3. February 2015, 12:44

Akute / Nie isnuje

Used drive  : _NEC    DVD_RW ND-3550A   Adapter: 1  ID: 0

Read mode               : Secure
Utilize accurate stream : Yes
Defeat audio cache      : Yes
Make use of C2 pointers : No

Read offset correction                      : 48
Overread into Lead-In and Lead-Out          : No
Fill up missing offset samples with silence : Yes
Delete leading and trailing silent blocks   : No
Null samples used in CRC calculations       : Yes
Used interface                              : Native Win32 interface for Win NT & 2000
Gap handling                                : Appended to previous track

Used output format : Internal WAV Routines
Sample format      : 44.100 Hz; 16 Bit; Stereo


TOC of the extracted CD

     Track |   Start  |  Length  | Start sector | End sector 
    ---------------------------------------------------------
        1  |  0:00.00 |  3:47.44 |         0    |    17068   
        2  |  3:47.44 |  3:44.27 |     17069    |    33895   
        3  |  7:31.71 |  4:54.00 |     33896    |    55945   
        4  | 12:25.71 |  4:13.33 |     55946    |    74953   
        5  | 16:39.29 |  4:27.31 |     74954    |    95009   
        6  | 21:06.60 |  3:07.32 |     95010    |   109066   
        7  | 24:14.17 |  2:32.24 |    109067    |   120490   
        8  | 26:46.41 |  4:16.08 |    120491    |   139698   
        9  | 31:02.49 |  3:49.09 |    139699    |   156882   
       10  | 34:51.58 |  3:21.05 |    156883    |   171962   


Track  1

     Filename D:\Akute - Nie isnuje\01 - Krou by vada.wav

     Pre-gap length  0:00:02.00

     Peak level 100.0 %
     Extraction speed 4.1 X
     Track quality 100.0 %
     Test CRC 08A8BE6B
     Copy CRC 08A8BE6B
     Accurately ripped (confidence 1)  [75FD0371]  (AR v2)
     Copy OK

Track  2

     Filename D:\Akute - Nie isnuje\02 - Jany pad snieham.wav

     Peak level 100.0 %
     Extraction speed 4.6 X
     Track quality 100.0 %
     Test CRC 7BDD1319
     Copy CRC 7BDD1319
     Accurately ripped (confidence 1)  [F7DFF7DA]  (AR v2)
     Copy OK

Track  3

     Filename D:\Akute - Nie isnuje\03 - Spi.wav

     Peak level 100.0 %
     Extraction speed 5.2 X
     Track quality 100.0 %
     Test CRC 3D144B7E
     Copy CRC 3D144B7E
     Accurately ripped (confidence 1)  [E71D6F34]  (AR v2)
     Copy OK

Track  4

     Filename D:\Akute - Nie isnuje\04 - Moj rodny gut.wav

     Peak level 100.0 %
     Extraction speed 5.5 X
     Track quality 100.0 %
     Test CRC C6B0E9AF
     Copy CRC C6B0E9AF
     Accurately ripped (confidence 1)  [03A66D08]  (AR v2)
     Copy OK

Track  5

     Filename D:\Akute - Nie isnuje\05 - Cicha, jak maja smierc.wav

     Peak level 100.0 %
     Extraction speed 5.9 X
     Track quality 100.0 %
     Test CRC 03B4A4F0
     Copy CRC 03B4A4F0
     Accurately ripped (confidence 1)  [D11F27C2]  (AR v2)
     Copy OK

Track  6

     Filename D:\Akute - Nie isnuje\06 - Lipkaje.wav

     Peak level 100.0 %
     Extraction speed 5.9 X
     Track quality 100.0 %
     Test CRC 017D95AF
     Copy CRC 017D95AF
     Accurately ripped (confidence 1)  [9E726364]  (AR v2)
     Copy OK

Track  7

     Filename D:\Akute - Nie isnuje\07 - Iholki.wav

     Peak level 100.0 %
     Extraction speed 5.9 X
     Track quality 100.0 %
     Test CRC 4816F6AD
     Copy CRC 4816F6AD
     Accurately ripped (confidence 1)  [46A83D83]  (AR v2)
     Copy OK

Track  8

     Filename D:\Akute - Nie isnuje\08 - Spital.wav

     Peak level 100.0 %
     Extraction speed 6.6 X
     Track quality 100.0 %
     Test CRC 1475F59F
     Copy CRC 1475F59F
     Accurately ripped (confidence 1)  [4293F55F]  (AR v2)
     Copy OK

Track  9

     Filename D:\Akute - Nie isnuje\09 - Nie isnuje.wav

     Peak level 100.0 %
     Extraction speed 6.8 X
     Track quality 100.0 %
     Test CRC 989C436A
     Copy CRC 989C436A
     Accurately ripped (confidence 1)  [5BC292BE]  (AR v2)
     Copy OK

Track 10

     Filename D:\Akute - Nie isnuje\10 - Zorka.wav

     Peak level 100.0 %
     Extraction speed 6.8 X
     Track quality 100.0 %
     Test CRC AD9D1415
     Copy CRC AD9D1415
     Accurately ripped (confidence 1)  [FA2BC2D4]  (AR v2)
     Copy OK


All tracks accurately ripped

No errors occurred

End of status report

---- CUETools DB Plugin V2.1.4

[CTDB TOCID: sSVibHugOCQ8v9L97g4Kdk6z.lM-] found
Submit result: sSVibHugOCQ8v9L97g4Kdk6z.lM- has been confirmed
Track | CTDB Status
  1   | (1/1) Accurately ripped
  2   | (1/1) Accurately ripped
  3   | (1/1) Accurately ripped
  4   | (1/1) Accurately ripped
  5   | (1/1) Accurately ripped
  6   | (1/1) Accurately ripped
  7   | (1/1) Accurately ripped
  8   | (1/1) Accurately ripped
  9   | (1/1) Accurately ripped
 10   | (1/1) Accurately ripped


==== Log checksum 7778D7C156085AB5D0E2F71290F19BFBBD82F1F37BB45670C4C3AA327DE9B22D ====


CUE:
Здымкі экрана Паказаць

REM ACCURATERIPID 000ee082-00763fb0-8008f40a
REM GENRE "Indie Rock"
REM DATE 2012
REM DISCID 8008F40A
PERFORMER "Akute"
TITLE "Nie isnuje"
CATALOG 4810689027139
FILE "01 - Krou by vada.flac" WAVE
  TRACK 01 AUDIO
    TITLE "Kroŭ by vada"
    PERFORMER "Akute"
    INDEX 01 00:00:00
FILE "02 - Jany pad snieham.flac" WAVE
  TRACK 02 AUDIO
    TITLE "Jany pad śnieham"
    PERFORMER "Akute"
    INDEX 01 00:00:00
FILE "03 - Spi.flac" WAVE
  TRACK 03 AUDIO
    TITLE "Śpi"
    PERFORMER "Akute"
    INDEX 01 00:00:00
FILE "04 - Moj rodny gut.flac" WAVE
  TRACK 04 AUDIO
    TITLE "Moj rodny gut"
    PERFORMER "Akute"
    INDEX 01 00:00:00
FILE "05 - Cicha, jak maja smierc.flac" WAVE
  TRACK 05 AUDIO
    TITLE "Cicha, jak maja śmierć"
    PERFORMER "Akute"
    INDEX 01 00:00:00
FILE "06 - Lipkaje.flac" WAVE
  TRACK 06 AUDIO
    TITLE "Lipkaje"
    PERFORMER "Akute"
    INDEX 01 00:00:00
FILE "07 - Iholki.flac" WAVE
  TRACK 07 AUDIO
    TITLE "Ihołki"
    PERFORMER "Akute"
    INDEX 01 00:00:00
FILE "08 - Spital.flac" WAVE
  TRACK 08 AUDIO
    TITLE "Špital"
    PERFORMER "Akute"
    INDEX 01 00:00:00
FILE "09 - Nie isnuje.flac" WAVE
  TRACK 09 AUDIO
    TITLE "Nie isnuje"
    PERFORMER "Akute"
    INDEX 01 00:00:00
FILE "10 - Zorka.flac" WAVE
  TRACK 10 AUDIO
    TITLE "Zorka"
    PERFORMER "Akute"
    INDEX 01 00:00:00

Вокладкі адсканаваў Witold Ramsa.

Апошні раз адрэдагавана Bonaparte (2015-02-04 14:28:31)

Прычэпкі допісу

Akute - 2012 - Nie isnuje - CD BMA 145.torrent 42.22 кБ, 40 спампоўванняў з 2015-02-04 

Вы не маеце дазволаў на спампоўванне прычэпкаў гэтага допісу.