1

Тэма: Akute / Reaĺnaść i sny / CD BMA 152 / 2014 / FLAC / lossless

Akute – Reaĺnaść i sny

http://i.imgur.com/v4QmivE.jpg

Лэйбл: БМА-group – CD BMA 152
Краіна: Беларусь
Год: 2014-04-10
Фармат: CD, FLAC
Бітрэйт: lossless
Стыль: Indie Rock
Памер: 330 Mb (346 502 025 b)
Рэліз на MusicBrainz

Трэкліст
1. My calujem sonca (4:27)
2. Kuli (3:58)
3. Naskroź (3:41)
4. Scieny (5:10)
5. Tvaje anioly (4:37)
6. Z nieba nie dastać (2:57)
7. Marnatraŭny syn (3:46)
8. Biehčy (4:24)
9. Pastki (4:33)
10. Jak na dałoni (2:58)
11. Dzie budzieš ty (4:37)

Агульная працягласць: 45:08

LOG:

Здымкі экрана Паказаць

Exact Audio Copy V1.0 beta 4 from 7. December 2014

EAC extraction logfile from 3. February 2015, 11:36

Akute / Realnasc i sny

Used drive  : _NEC    DVD_RW ND-3550A   Adapter: 1  ID: 0

Read mode               : Secure
Utilize accurate stream : Yes
Defeat audio cache      : Yes
Make use of C2 pointers : No

Read offset correction                      : 48
Overread into Lead-In and Lead-Out          : No
Fill up missing offset samples with silence : Yes
Delete leading and trailing silent blocks   : No
Null samples used in CRC calculations       : Yes
Used interface                              : Native Win32 interface for Win NT & 2000
Gap handling                                : Appended to previous track

Used output format : Internal WAV Routines
Sample format      : 44.100 Hz; 16 Bit; Stereo


TOC of the extracted CD

     Track |   Start  |  Length  | Start sector | End sector 
    ---------------------------------------------------------
        1  |  0:00.00 |  4:27.29 |         0    |    20053   
        2  |  4:27.29 |  3:58.00 |     20054    |    37903   
        3  |  8:25.29 |  3:41.31 |     37904    |    54509   
        4  | 12:06.60 |  5:09.66 |     54510    |    77750   
        5  | 17:16.51 |  4:37.19 |     77751    |    98544   
        6  | 21:53.70 |  2:57.02 |     98545    |   111821   
        7  | 24:50.72 |  3:45.56 |    111822    |   128752   
        8  | 28:36.53 |  4:23.64 |    128753    |   148541   
        9  | 33:00.42 |  4:33.25 |    148542    |   169041   
       10  | 37:33.67 |  2:57.47 |    169042    |   182363   
       11  | 40:31.39 |  4:36.71 |    182364    |   203134   


Track  1

     Filename D:\Akute - Realnasc i sny\01 - My calujem sonca.wav

     Pre-gap length  0:00:02.00

     Peak level 100.0 %
     Extraction speed 1.3 X
     Track quality 100.0 %
     Test CRC F4FA748B
     Copy CRC F4FA748B
     Track not present in AccurateRip database
     Copy OK

Track  2

     Filename D:\Akute - Realnasc i sny\02 - Kuli.wav

     Peak level 100.0 %
     Extraction speed 1.4 X
     Track quality 100.0 %
     Test CRC 5F8C94CB
     Copy CRC 5F8C94CB
     Track not present in AccurateRip database
     Copy OK

Track  3

     Filename D:\Akute - Realnasc i sny\03 - Naskroz.wav

     Peak level 100.0 %
     Extraction speed 1.3 X
     Track quality 99.9 %
     Test CRC EC16EE7C
     Copy CRC EC16EE7C
     Track not present in AccurateRip database
     Copy OK

Track  4

     Filename D:\Akute - Realnasc i sny\04 - Scieny.wav

     Peak level 100.0 %
     Extraction speed 1.7 X
     Track quality 100.0 %
     Test CRC 843DB79E
     Copy CRC 843DB79E
     Track not present in AccurateRip database
     Copy OK

Track  5

     Filename D:\Akute - Realnasc i sny\05 - Tvaje anioly.wav

     Peak level 100.0 %
     Extraction speed 1.8 X
     Track quality 100.0 %
     Test CRC E4A3E758
     Copy CRC E4A3E758
     Track not present in AccurateRip database
     Copy OK

Track  6

     Filename D:\Akute - Realnasc i sny\06 - Z nieba nie dastac.wav

     Peak level 100.0 %
     Extraction speed 1.8 X
     Track quality 100.0 %
     Test CRC 3A3BA450
     Copy CRC 3A3BA450
     Track not present in AccurateRip database
     Copy OK

Track  7

     Filename D:\Akute - Realnasc i sny\07 - Marnatrauny syn.wav

     Peak level 100.0 %
     Extraction speed 1.5 X
     Track quality 99.9 %
     Test CRC FA2FA939
     Copy CRC FA2FA939
     Track not present in AccurateRip database
     Copy OK

Track  8

     Filename D:\Akute - Realnasc i sny\08 - Biehcy.wav

     Peak level 100.0 %
     Extraction speed 2.0 X
     Track quality 100.0 %
     Test CRC 4A1B9671
     Copy CRC 4A1B9671
     Track not present in AccurateRip database
     Copy OK

Track  9

     Filename D:\Akute - Realnasc i sny\09 - Pastki.wav

     Peak level 100.0 %
     Extraction speed 2.1 X
     Track quality 100.0 %
     Test CRC 4CBA051A
     Copy CRC 4CBA051A
     Track not present in AccurateRip database
     Copy OK

Track 10

     Filename D:\Akute - Realnasc i sny\10 - Jak na daloni.wav

     Peak level 100.0 %
     Extraction speed 1.8 X
     Track quality 99.9 %
     Test CRC 32DAC49E
     Copy CRC 32DAC49E
     Track not present in AccurateRip database
     Copy OK

Track 11

     Filename D:\Akute - Realnasc i sny\11 - Dzie budzies ty.wav

     Peak level 100.0 %
     Extraction speed 2.3 X
     Track quality 100.0 %
     Test CRC 9C3DD396
     Copy CRC 9C3DD396
     Track not present in AccurateRip database
     Copy OK


None of the tracks are present in the AccurateRip database

No errors occurred

End of status report

---- CUETools DB Plugin V2.1.4

[CTDB TOCID: dRL47vAYamP7O8biZvSKd7u7xxY-] disk not present in database
Submit result: dRL47vAYamP7O8biZvSKd7u7xxY- has been uploaded


==== Log checksum 9D590F277AD6F76C10ED8763C08A9E5E212B35DD8D52CD74B8D1223BA00EDC9B ====


CUE:
Здымкі экрана Паказаць

REM GENRE Indie Rock
REM DATE 2014-04-10
REM DISCID 950A940B
REM COMMENT ExactAudioCopy v1.0b4
CATALOG 4810689033710
PERFORMER "Akute"
TITLE "Reaĺnaść i sny"
FILE "01 - My calujem sonca.flac" WAVE
  TRACK 01 AUDIO
    TITLE "My calujem sonca"
    INDEX 01 00:00:00
FILE "02 - Kuli.flac" WAVE
  TRACK 02 AUDIO
    TITLE "Kuli"
    INDEX 01 00:00:00
FILE "03 - Naskroz.flac" WAVE
  TRACK 03 AUDIO
    TITLE "Naskroź"
    INDEX 01 00:00:00
FILE "04 - Scieny.flac" WAVE
  TRACK 04 AUDIO
    TITLE "Scieny"
    INDEX 01 00:00:00
FILE "05 - Tvaje anioly.flac" WAVE
  TRACK 05 AUDIO
    TITLE "Tvaje anioly"
    INDEX 01 00:00:00
FILE "06 - Z nieba nie dastac.flac" WAVE
  TRACK 06 AUDIO
    TITLE "Z nieba nie dastać"
    INDEX 01 00:00:00
FILE "07 - Marnatrauny syn.flac" WAVE
  TRACK 07 AUDIO
    TITLE "Marnatraŭny syn"
    INDEX 01 00:00:00
FILE "08 - Biehcy.flac" WAVE
  TRACK 08 AUDIO
    TITLE "Biehčy"
    INDEX 01 00:00:00
FILE "09 - Pastki.flac" WAVE
  TRACK 09 AUDIO
    TITLE "Pastki"
    INDEX 01 00:00:00
FILE "10 - Jak na daloni.flac" WAVE
  TRACK 10 AUDIO
    TITLE "Jak na dałoni"
    INDEX 01 00:00:00
FILE "11 - Dzie budzies ty.flac" WAVE
  TRACK 11 AUDIO
    TITLE "Dzie budzieš ty"
    INDEX 01 00:00:00

Вокладкі адсканаваў Witold Ramsa.

Апошні раз адрэдагавана Bonaparte (2015-02-04 14:27:47)

Прычэпкі допісу

Akute - 2014 - Realnasc i sny - CD BMA 152.torrent 52.96 кБ, 45 спампоўванняў з 2015-02-04 

Вы не маеце дазволаў на спампоўванне прычэпкаў гэтага допісу.