1

Тэма: Арт-группа Хор Турецкого & Soprano - Песни победы / Unity Songs. Минск. Беларусь (03.07.2021) (2021) SATRip

https://i115.fastpic.org/big/2021/0824/dc/348ec51d6d9d8c1aa13a4d3064a761dc.jpg
Название: Арт-группа Хор Турецкого & Soprano - Песни победы / Unity Songs. Минск. Беларусь (03.07.2021)
Год: 2021
Жанр: Military song, Pop, Folk
Страна: Республика Беларусь, Россия
Студия: ОНТ
Продолжительность: 01:37:29
Язык: Русский

О фильме: 3 июля 2021 — Арт-группа «Хор Турецкого» выступает для минчан и гостей столицы у стелы «Минск — город-герой».
Праздничный концерт, посвященный Дню Независимости Республики Беларусь, проходит в эти минуты у стелы «Минск — город-герой»
Исторический марафон «Песни Победы» продолжил объединять весь мир.
«Хор Турецкого» и SOPRANO выступили на центральных площадях в 12 странах мира на 2 континентах.
Впервые Unity Songs (межд. название проекта) услышали жители Рима, Вашингтона, Торонто, Варшавы, Будапешта, Праги, Пекина, Циндао и снова спели их в Берлине, Вене, Париже, Нью-Йорке, Москве, Бресте и Минске.
ПЕСНИ ПОБЕДЫ – уникальный исторический марафон, который продолжает объединять весь мир. Песни, написанные во время войны, связывают миллионы человек разных поколений в самых разных уголках Земли. Именно эти песни когда-то звучали в полуразрушенных городах, с ними шли в атаку, их пели в коротких передышках между боями. Они не давали упасть духом на фронте и поддерживали тех, кто помогал армии в тылу. Как и много лет назад, эти не просто слова, положенные на музыку – это наша история и наша память. Ведь именно эти песни, написанные в годы Второй Мировой войны, напоминают нам о том, что действительно важно: о любви, чести, дружбе, преданности и о мире. Мире, который дороже и важнее любых временных рамок и разногласий.


https://i82.fastpic.org/big/2016/1014/97/49fd58ade79b150df39ad49c279e3b97.gif
Файл
Формат: AVI
Качество: SATRip
Видео:656x368 (1.78:1), 25 fps, XviD build 73 ~1122 kbps avg, 0.19 bit/pixel
Звук: 48 kHz, MP3, 2 ch, ~128.00 kbps avg
Субтитры: Отсутствуют

Здымкі экрана Паказаць
1) Ода к радости
2) Ave Maria
3) Полюшко-поле
4) Смуглянка
5) Черноглазая казачка
6) Нам нужна одна победа
7) Журавли
8) Что ты знаешь о войне?
9) Госпожа удача
10) Nessun dorma - ария из оперы Дж. Пуччини "Турандот"
11) Barcelona
12) Давай закурим
13) На побывку едет
14) Баллада о военных лётчицах
15) От зари до зари
16) Ты - всё, что нужно мне
17) Adagio
18) Ленинградский горьковатый хлеб
19) Bella Ciao
20) Калинка
21) Hava Nagila
22) Соловей
23) Беларусь
24) Беловежская пуща
25) Катюша
26) День Победы
Здымкі экрана Паказаць
3 июля 2021 — Арт-группа «Хор Турецкого» выступает для минчан и гостей столицы у стелы «Минск — город-герой».
Праздничный концерт, посвященный Дню Независимости Республики Беларусь, проходит в эти минуты у стелы «Минск — город-герой»

Исторический марафон «Песни Победы» продолжил объединять весь мир.
«Хор Турецкого» и SOPRANO выступили на центральных площадях в 12 странах мира на 2 континентах.
Впервые Unity Songs (межд. название проекта) услышали жители Рима, Вашингтона, Торонто, Варшавы, Будапешта, Праги, Пекина, Циндао и снова спели их в Берлине, Вене, Париже, Нью-Йорке, Москве, Бресте и Минске.

ПЕСНИ ПОБЕДЫ – уникальный исторический марафон, который продолжает объединять весь мир. Песни, написанные во время войны, связывают миллионы человек разных поколений в самых разных уголках Земли. Именно эти песни когда-то звучали в полуразрушенных городах, с ними шли в атаку, их пели в коротких передышках между боями. Они не давали упасть духом на фронте и поддерживали тех, кто помогал армии в тылу. Как и много лет назад, эти не просто слова, положенные на музыку – это наша история и наша память. Ведь именно эти песни, написанные в годы Второй Мировой войны, напоминают нам о том, что действительно важно: о любви, чести, дружбе, преданности и о мире. Мире, который дороже и важнее любых временных рамок и разногласий.

Здымкі экрана Паказаць
General
Complete name : D:Хор Турецкого & Soprano - Песни победы (2021) SATRip by.ExKinoRay & Shkiper.avi
Format : AVI
Format/Info : Audio Video Interleave
File size : 879 MiB
Duration : 1 h 37 min
Overall bit rate : 1 260 kb/s
Writing application : VirtualDubMod 1.5.10.3 | www.virtualdub-fr.org || (build 2550/release)
Writing library : VirtualDubMod build 2550/release

Video
ID : 0
Format : MPEG-4 Visual
Format profile : Advanced Simple@L5
Format settings : BVOP1 / Custom Matrix
Format settings, BVOP : 1
Format settings, QPel : No
Format settings, GMC : No warppoints
Format settings, Matrix : Custom
Codec ID : XVID
Codec ID/Hint : XviD
Duration : 1 h 37 min
Bit rate : 1 123 kb/s
Width : 656 pixels
Height : 368 pixels
Display aspect ratio : 16:9
Frame rate : 25.000 FPS
Color space : YUV
Chroma subsampling : 4:2:0
Bit depth : 8 bits
Scan type : Progressive
Compression mode : Lossy
Bits/(Pixel*Frame) : 0.186
Stream size : 783 MiB (89%)
Writing library : XviD 73

Audio
ID : 1
Format : MPEG Audio
Format version : Version 1
Format profile : Layer 3
Codec ID : 55
Codec ID/Hint : MP3
Duration : 1 h 37 min
Bit rate mode : Constant
Bit rate : 128 kb/s
Channel(s) : 2 channels
Sampling rate : 48.0 kHz
Frame rate : 41.667 FPS (1152 SPF)
Compression mode : Lossy
Stream size : 89.3 MiB (10%)
Alignment : Aligned on interleaves
Interleave, duration : 40 ms (1.00 video frame)
Interleave, preload duratio : 504 ms
Writing library : LAME3.99r
Encoding settings : -m s -V 4 -q 2 -lowpass 17 -b 128

Здымкі экрана Паказаць
https://c.radikal.ru/c32/2108/0d/29312a8cf339t.jpg https://b.radikal.ru/b04/2108/23/1568e7b889a8t.jpg https://b.radikal.ru/b22/2108/72/6d64f954ca26t.jpg https://d.radikal.ru/d35/2108/1f/12aae93ca1a9t.jpg https://c.radikal.ru/c43/2108/8f/29573f28c2f5t.jpg https://a.radikal.ru/a02/2108/28/5fac231d1a23t.jpg

Апошні раз адрэдагавана surikmas (2021-08-25 19:42:48)

Прычэпкі допісу

Hor_Tureckogo__Soprano.torrent 18 кБ, файл ніколі не спампоўваўся. 

Вы не маеце дазволаў на спампоўванне прычэпкаў гэтага допісу.